#TITLE:3254 Techno Party;
#SUBTITLE:;
#ARTIST:Audition;
#TITLETRANSLIT:;
#SUBTITLETRANSLIT:;
#ARTISTTRANSLIT:;
#CREDIT:;
#BANNER:;
#BACKGROUND:;
#LYRICSPATH:;
#CDTITLE:;
#MUSIC:3254 Techno Party.ogg;
#OFFSET:0.000;
#SAMPLESTART:100.000;
#SAMPLELENGTH:12.000;
#SELECTABLE:YES;
#BPMS:0.000=142.000;
#STOPS:;
#BGCHANGES:;
// cache tags:
#FIRSTBEAT:39.833;
#LASTBEAT:656.000;
#SONGFILENAME:Songs/Super Dancer Online mania/3254 Techno Party 1/3254 Techno Party.sm;
#HASMUSIC:1;
#HASBANNER:0;
#MUSICLENGTH:283.933;
// end cache tags

//---------------techno-single8 - ----------------
#NOTES:
     techno-single8:
     :
     Hard:
     1:
     0.535,0.693,0.000,0.000,0.231,1063.000,0.000,0.000,150.000,0.000:
00000000
00000000
00000000
00000000
,
00000000
00000000
00000000
00000000
,
00000000
00000000
00000000
00000000
,
00000000
00000000
00000000
00000000
,
00000000
00000000
00000000
00000000
,
00000000
00000000
00000000
00000000
,
00000000
00000000
00000000
00000000
,
00000000
00000000
00000000
00000000
,
00000000
00000000
00000000
00000000
,
00000000
00000000
00000000
00000000
00000000
00000000
00000000
00000000
00000000
00000000
00000000
00000000
00000000
00000000
00000000
00000000
00000000
00000000
00000000
00000000
00000000
00000000
00000000
M000000M
,
00000000
00001000
00100000
00000000
01000000
00001000
00000100
00000000
,
00000010
00000000
00000000
00010000
00000000
00000000
00000100
00000000
00000000
00000000
00000000
00000000
00000010
00000000
00000000
01000000
00000000
00000000
00010000
00000000
00000000
00100000
00000000
M000000M
,
00000000
00001000
00000100
00000000
00000010
00000010
00000010
00000000
,
00100000
00000000
00000000
01000000
00000000
00000000
00000100
00000000
00000000
00000000
00000000
00000000
00010000
00000000
00000000
00000100
00000000
00000000
00000010
00000000
00000000
01000000
00000000
M000000M
,
00000000
00010000
00100000
00000000
00001000
00010000
00100000
00000000
,
00001000
00000000
00000000
00000100
00000000
00000000
00100000
00000000
00000000
00000000
00000000
00000000
01000000
00000000
00000000
01000000
00000000
00000000
00010000
00000000
00000000
00100000
00000000
M000000M
,
00000000
00000010
00000010
00000000
01000000
00010000
00100000
00000000
,
00001000
00000000
00000000
00000000
00000000
00000000
00001000
00000000
00000000
00000000
00000000
00000000
00000100
00000000
00000000
00000100
00000000
00000000
00000010
00000000
00000000
00000010
00000000
M000000M
,
00000000
01000000
01000000
00000000
00001000
00100000
00010000
00000000
,
01000000
00000000
00000000
00000100
00000000
00000000
00010000
00000000
00000000
00000000
00000000
00000000
00000010
00000000
00000000
00100000
00000000
00000000
00001000
00000000
00000000
00010000
00000000
M000000M
,
00000000
00000010
00000010
00000000
00000100
00000100
00000100
00000000
,
00010000
00000000
00000000
01000000
00000000
00000000
00100000
00000000
00000000
00000000
00000000
00000000
01000000
00000000
00000000
00000100
00000000
00000000
00010000
00000000
00000000
00100000
00000000
M000000M
,
00000000
01000000
01000000
00000000
00001000
00010000
00001000
00000000
,
00100000
00000000
00000000
00000100
00000000
00000000
00010000
00000000
00000000
00000000
00000000
00000000
00000100
00000000
00000000
00000010
00000000
00000000
00100000
00000000
00000000
00010000
00000000
M000000M
,
00000000
00001000
00001000
00000000
00000010
00000010
00000010
00000000
,
00000100
00000000
00000000
00100000
00000000
00000000
00001000
00000000
00000000
01000000
00000000
00000000
00000100
00000000
00000000
00100000
00000000
00000000
00000010
00000000
00000000
01000000
00000000
00000000
00000100
00000000
00000000
00100000
00000000
00000000
00001000
00000000
00000000
01000000
00000000
00000000
00000100
00000000
00000000
00100000
00000000
00000000
00000010
00000000
00000000
00010000
M000000M
00000000
,
00000000
01000000
00010000
00100000
00000100
00000010
00010000
00100000
,
00001000
00000000
00000000
01000000
00000000
00000000
00000100
00000000
00000000
00010000
00000000
00000000
00000010
00000000
00000000
00000100
00000000
00000000
00100000
00000000
00000000
00001000
00000000
M000000M
,
00000000
01000000
00010000
00100000
00000010
00001000
00010000
00000100
,
00000010
00000000
00000000
00000000
00000000
00000000
00000000
00000000
00000000
00000000
00000000
00000000
00000100
00000000
00000000
00000000
00000000
00000000
00010000
00000000
00000000
00010000
00000000
M000000M
,
00000000
01000000
00001000
00010000
00000010
00000100
00100000
00001000
,
00010000
00000000
00000000
00000010
00000000
00000000
01000000
00000000
00000000
00010000
00000000
00000000
00100000
00000000
00000000
00000100
00000000
00000000
00010000
00000000
00000000
00000100
00000000
M000000M
,
00000000
00000010
00010000
01000000
00001000
00100000
00001000
00000010
,
00100000
00000000
00000000
00000000
00000000
00000000
00100000
00000000
00000000
00000000
00000000
00000000
01000000
00000000
00000000
00010000
00000000
00000000
00000100
00000000
00000000
00010000
00000000
M000000M
,
00000000
00000100
00000010
00010000
00000100
00100000
00001000
00010000
,
00000100
00000000
00000000
00000010
00000000
00000000
00100000
00000000
00000000
00001000
00000000
00000000
00010000
00000000
00000000
00000010
00000000
00000000
01000000
00000000
00000000
00001000
00000000
M000000M
,
00000000
00100000
00001000
00000100
00000010
01000000
00001000
00010000
,
00100000
00000000
00000000
00000000
00000000
00000000
00000000
00000000
00000000
00000000
00000000
00000000
00100000
00000000
00000000
00000000
00000000
00000000
00000010
00000000
00000000
00000100
00000000
M000000M
,
00000000
00100000
01000000
00001000
00100000
00000010
00000100
00100000
,
00001000
00000000
00000000
01000000
00000000
00000000
00001000
00000000
00000000
00000100
00000000
00000000
00010000
00000000
00000000
00100000
00000000
00000000
00001000
00000000
00000000
01000000
00000000
M000000M
,
00000000
00000000
00000100
00000000
00000100
00010000
00100000
00000100
,
00000010
00100000
00000100
00010000
00000010
01000000
00000100
00100000
00001000
00010000
00000010
00100000
00000100
00010000
00000010
01000000
,
00001000
00000000
00000000
00000000
00000000
00000000
00000000
00000000
00000000
00000000
00000000
00000000
00000000
00000000
00000000
00000000
00000000
00000000
00000000
00000000
00000000
00000000
00000000
M000000M
,
00000000
00100000
00000100
00000010
00000100
00010000
00000000
00100000
,
00000000
00000000
00000000
01000000
00000000
00000000
00000100
00000000
00000000
00010000
00000000
00000000
00100000
00000000
00000000
00001000
00000000
00000000
00000000
00000000
00000000
00001000
00000000
M000000M
,
00000000
00001000
00100000
00000010
00000100
00000010
00000000
00000010
,
00000000
00000000
00000000
01000000
00000000
00000000
00001000
00000000
00000000
00100000
00000000
00000000
00000100
00000000
00000000
00001000
00000000
00000000
00000010
00000000
00000000
00100000
00000000
M000000M
,
00000000
00100000
01000000
00000100
00010000
00100000
00000000
00100000
,
00000000
00000000
00000000
00000010
00000000
00000000
00010000
00000000
00000000
00000100
00000000
00000000
00100000
00000000
00000000
01000000
00000000
00000000
00000000
00000000
00000000
01000000
00000000
M000000M
,
00000000
00000010
00010000
00000100
00100000
00000010
00000000
00000010
,
00000000
00000000
00000000
00000100
00000000
00000000
00100000
00000000
00000000
00001000
00000000
00000000
00000010
00000000
00000000
01000000
00000000
00000000
00000100
00000000
00000000
00010000
00000000
M000000M
,
00000000
00000100
00100000
01000000
00000100
00010000
00000000
00010000
,
00000000
00000000
00000000
00000010
00000000
00000000
00000010
00000000
00000000
00010000
00000000
00000000
01000000
00000000
00000000
00000100
00000000
00000000
00000000
00000000
00000000
00000100
00000000
M000000M
,
00000000
00000100
00010000
00100000
00000010
00001000
00000000
00001000
,
00000000
00000000
00000000
01000000
00000000
00000000
00010000
00000000
00000000
00100000
00000000
00000000
00000010
00000000
00000000
00001000
00000000
00000000
00010000
00000000
00000000
00000100
00000000
M000000M
,
00000000
01000000
00001000
00010000
00100000
00000100
00000000
00000100
,
00000000
00000000
00000000
00000010
00000000
00000000
00100000
00000000
00000000
01000000
00000000
00000000
00001000
00000000
00000000
00100000
00000000
00000000
00000000
00000000
00000000
00100000
00000000
M000000M
,
00000000
00000100
00010000
00001000
01000000
00000010
00000000
00000010
,
00000000
00000000
00000000
00000000
00000000
00000000
00000100
00000000
00000000
00000000
00000000
00000000
00010000
00000000
00000000
00000000
00000000
00000000
00100000
00000000
00000000
00000000
00000000
00000000
00001000
00000000
00000000
00010000
00000000
00000000
00000010
00000000
00000000
01000000
00000000
00000000
00001000
00000000
00000000
00010000
00000000
00000000
00000010
00000000
00000000
01000000
M000000M
00000000
,
00000000
00001000
01000000
01000000
00001000
00100000
00000100
00010000
,
00000010
00000000
00000000
00100000
00000000
00000000
00000100
00000000
00000000
00010000
00000000
00000000
00100000
00000000
00000000
01000000
00000000
00000000
00000100
00000000
00000000
00010000
00000000
M000000M
,
00000000
00000010
00000100
00000010
00100000
00001000
01000000
00001000
,
00100000
00000000
00000000
00000100
00000000
00000000
00000010
00000000
00000000
00010000
00000000
00000000
00100000
00000000
00000000
00000100
00000000
00000000
00001000
00000000
00000000
01000000
00000000
M000000M
,
00000000
00100000
01000000
00001000
00010000
00000010
00000100
00100000
,
00000100
00000000
00000000
00010000
00000000
00000000
01000000
00000000
00000000
00001000
00000000
00000000
00100000
00000000
00000000
00000100
00000000
00000000
00000010
00000000
00000000
00010000
00000000
M000000M
,
00000000
00000100
00000100
00001000
00100000
00001000
01000000
01000000
,
00010000
00000000
00000000
00100000
00000000
00000000
00000100
00000000
00000000
00000010
00000000
00000000
00100000
00000000
00000000
00000100
00000000
00000000
01000000
00000000
00000000
00001000
00000000
M000000M
,
00000000
00001000
00100000
01000000
00001000
00100000
00000100
00010000
,
00000100
00000000
00000000
00000100
00000000
00000000
00000010
00000000
00000000
00100000
00000000
00000000
00100000
00000000
00000000
01000000
00000000
00000000
00001000
00000000
00000000
00010000
00000000
M000000M
,
00000000
01000000
00000100
00000100
00000010
00001000
00100000
00000100
,
00001000
00000000
00000000
00000010
00000000
00000000
00100000
00000000
00000000
01000000
00000000
00000000
00001000
00000000
00000000
00010000
00000000
00000000
00000100
00000000
00000000
00000010
00000000
M000000M
,
00000000
00000010
00010000
00000100
00100000
01000000
00001000
00010000
,
00000010
00000000
00000000
00000100
00000000
00000000
00100000
00000000
00000000
01000000
00000000
00000000
00001000
00000000
00000000
00100000
00000000
00000000
00010000
00000000
00000000
00000100
00000000
M000000M
,
00000000
00000100
00000010
00100000
01000000
00000100
00010000
00001000
,
00000010
00000000
00000000
00100000
00000000
00000000
00001000
00000000
00000000
01000000
00000000
00000000
00000100
00000000
00000000
00100000
00000000
00000000
00100000
00000000
00000000
00010000
00000000
M000000M
,
00000000
00000100
00000100
00001000
00001000
01000000
01000000
00001000
,
00001000
00000000
00000000
00000100
00000000
00000000
00000100
00000000
00000000
00000010
00000000
00000000
00000010
00000000
00000000
00100000
00000000
00000000
00100000
00000000
00000000
00100000
00000000
M000000M
,
00000000
00100000
00100000
00000100
00000100
00100000
00100000
01000000
,
01000000
00000000
00000000
00010000
00000000
00000000
00010000
00000000
00000000
00000100
00000000
00000000
00000100
00000000
00000000
00000010
00000000
00000000
00000010
00000000
00000000
00000010
00000000
M000000M
,
00000000
00001000
00001000
00000100
00000100
01000000
01000000
00100000
,
00100000
00000000
00000000
00010000
00000000
00000000
00010000
00000000
00000000
00000100
00000000
00000000
00000100
00000000
00000000
00000010
00000000
00000000
00000010
00000000
00000000
00000010
00000000
M000000M
,
00000000
00100000
00100000
01000000
01000000
00010000
00010000
00001000
,
00001000
00000000
00000000
00000000
00000000
00000000
00000100
00000000
00000000
00000000
00000000
00000000
00000010
00000000
00000000
00000100
00000000
00000000
00001000
00000000
00000000
00000100
00000000
M000000M
,
00000000
00001000
00100000
00000000
01000000
00001000
00000100
00000000
,
00000010
00000000
00000000
00010000
00000000
00000000
00000100
00000000
00000000
00000000
00000000
00000000
00000010
00000000
00000000
01000000
00000000
00000000
00010000
00000000
00000000
00100000
00000000
M000000M
,
00000000
00001000
00000100
00000000
00000010
00000010
00000010
00000000
,
00100000
00000000
00000000
01000000
00000000
00000000
00000100
00000000
00000000
00000000
00000000
00000000
00010000
00000000
00000000
00000100
00000000
00000000
00000010
00000000
00000000
01000000
00000000
M000000M
,
00000000
00010000
00100000
00000000
00001000
00010000
00100000
00000000
,
00001000
00000000
00000000
00000100
00000000
00000000
00100000
00000000
00000000
00000000
00000000
00000000
01000000
00000000
00000000
01000000
00000000
00000000
00010000
00000000
00000000
00100000
00000000
M000000M
,
00000000
00000010
00000010
00000000
01000000
00010000
00100000
00000000
,
00001000
00000000
00000000
00000000
00000000
00000000
00001000
00000000
00000000
00000000
00000000
00000000
00000100
00000000
00000000
00000100
00000000
00000000
00000010
00000000
00000000
00000010
00000000
M000000M
,
00000000
01000000
01000000
00000000
00001000
00100000
00010000
00000000
,
01000000
00000000
00000000
00000100
00000000
00000000
00010000
00000000
00000000
00000000
00000000
00000000
00000010
00000000
00000000
00100000
00000000
00000000
00001000
00000000
00000000
00010000
00000000
M000000M
,
00000000
00000010
00000010
00000000
00000100
00000100
00000100
00000000
,
00010000
00000000
00000000
01000000
00000000
00000000
00100000
00000000
00000000
00000000
00000000
00000000
01000000
00000000
00000000
00000100
00000000
00000000
00010000
00000000
00000000
00100000
00000000
M000000M
,
00000000
01000000
01000000
00000000
00001000
00010000
00001000
00000000
,
00100000
00000000
00000000
00000100
00000000
00000000
00010000
00000000
00000000
00000000
00000000
00000000
00000100
00000000
00000000
00000010
00000000
00000000
00100000
00000000
00000000
01000000
00000000
M000000M
,
00000000
00001000
00001000
00000000
00000010
00000010
00000010
00000000
,
00000100
00000000
00000000
00100000
00000000
00000000
00001000
00000000
00000000
01000000
00000000
00000000
00000100
00000000
00000000
00100000
00000000
00000000
00000010
00000000
00000000
01000000
00000000
00000000
00000100
00000000
00000000
00100000
00000000
00000000
00001000
00000000
00000000
01000000
00000000
00000000
00000100
00000000
00000000
00100000
00000000
00000000
00000010
00000000
00000000
00010000
M000000M
00000000
,
00000000
01000000
00010000
00100000
00000100
00000010
00010000
00100000
,
00001000
00000000
00000000
01000000
00000000
00000000
00000100
00000000
00000000
00010000
00000000
00000000
00000010
00000000
00000000
00000100
00000000
00000000
00100000
00000000
00000000
00001000
00000000
M000000M
,
00000000
01000000
00010000
00100000
00000010
00001000
00010000
00000100
,
00000010
00000000
00000000
00000000
00000000
00000000
00000000
00000000
00000000
00000000
00000000
00000000
00000100
00000000
00000000
00000000
00000000
00000000
00010000
00000000
00000000
00010000
00000000
M000000M
,
00000000
01000000
00001000
00010000
00000010
00000100
00100000
00001000
,
00010000
00000000
00000000
00000010
00000000
00000000
01000000
00000000
00000000
00010000
00000000
00000000
00100000
00000000
00000000
00000100
00000000
00000000
00010000
00000000
00000000
00000100
00000000
M000000M
,
00000000
00000010
00010000
01000000
00001000
00100000
00001000
00000010
,
00100000
00000000
00000000
00000000
00000000
00000000
00100000
00000000
00000000
00000000
00000000
00000000
01000000
00000000
00000000
00010000
00000000
00000000
00000100
00000000
00000000
00010000
00000000
M000000M
,
00000000
00000100
00000010
00010000
00000100
00100000
00001000
00010000
,
00000100
00000000
00000000
00000010
00000000
00000000
00100000
00000000
00000000
00001000
00000000
00000000
00010000
00000000
00000000
00000010
00000000
00000000
01000000
00000000
00000000
00001000
00000000
M000000M
,
00000000
00100000
00001000
00000100
00000010
01000000
00001000
00010000
,
00100000
00000000
00000000
00000000
00000000
00000000
00000000
00000000
00000000
00000000
00000000
00000000
00100000
00000000
00000000
00000000
00000000
00000000
00000010
00000000
00000000
00000100
00000000
M000000M
,
00000000
00100000
01000000
00001000
00100000
00000010
00000100
00100000
,
00001000
00000000
00000000
01000000
00000000
00000000
00001000
00000000
00000000
00000100
00000000
00000000
00010000
00000000
00000000
00100000
00000000
00000000
00001000
00000000
00000000
01000000
00000000
M000000M
,
00000000
00000000
00000100
00000000
00000100
00010000
00100000
00000100
,
00000010
00100000
00000100
00010000
00000010
01000000
00000100
00100000
00001000
00010000
00000010
00100000
00000100
00010000
00000010
01000000
,
00001000
00000000
00000000
00000000
00000000
00000000
00000000
00000000
00000000
00000000
00000000
00000000
00000000
00000000
00000000
00000000
00000000
00000000
00000000
00000000
00000000
00000000
00000000
M000000M
,
00000000
00100000
00000100
00000010
00000100
00010000
00000000
00100000
,
00000000
00000000
00000000
01000000
00000000
00000000
00000100
00000000
00000000
00010000
00000000
00000000
00100000
00000000
00000000
00001000
00000000
00000000
00000000
00000000
00000000
00001000
00000000
M000000M
,
00000000
00001000
00100000
00000010
00000100
00000010
00000000
00000010
,
00000000
00000000
00000000
01000000
00000000
00000000
00001000
00000000
00000000
00100000
00000000
00000000
00000100
00000000
00000000
00001000
00000000
00000000
00000010
00000000
00000000
00100000
00000000
M000000M
,
00000000
00100000
01000000
00000100
00010000
00100000
00000000
00100000
,
00000000
00000000
00000000
00000010
00000000
00000000
00010000
00000000
00000000
00000100
00000000
00000000
00100000
00000000
00000000
01000000
00000000
00000000
00000000
00000000
00000000
01000000
00000000
M000000M
,
00000000
00000010
00010000
00000100
00100000
00000010
00000000
00000010
,
00000000
00000000
00000000
00000100
00000000
00000000
00100000
00000000
00000000
00001000
00000000
00000000
00000010
00000000
00000000
01000000
00000000
00000000
00000100
00000000
00000000
00010000
00000000
M000000M
,
00000000
00000100
00100000
01000000
00000100
00010000
00000000
00010000
,
00000000
00000000
00000000
00000010
00000000
00000000
00000010
00000000
00000000
00010000
00000000
00000000
01000000
00000000
00000000
00000100
00000000
00000000
00000000
00000000
00000000
00000100
00000000
M000000M
,
00000000
00000100
00010000
00100000
00000010
00001000
00000000
00001000
,
00000000
00000000
00000000
01000000
00000000
00000000
00010000
00000000
00000000
00100000
00000000
00000000
00000010
00000000
00000000
00001000
00000000
00000000
00010000
00000000
00000000
00000100
00000000
M000000M
,
00000000
01000000
00001000
00010000
00100000
00000100
00000000
00000100
,
00000000
00000000
00000000
00000010
00000000
00000000
00100000
00000000
00000000
01000000
00000000
00000000
00001000
00000000
00000000
00100000
00000000
00000000
00000000
00000000
00000000
00100000
00000000
M000000M
,
00000000
00000100
00010000
00001000
01000000
00000010
00000000
00000010
,
00000000
00000000
00000000
00000000
00000000
00000000
00000100
00000000
00000000
00000000
00000000
00000000
00010000
00000000
00000000
00000000
00000000
00000000
00100000
00000000
00000000
00000000
00000000
00000000
00001000
00000000
00000000
00010000
00000000
00000000
00000010
00000000
00000000
01000000
00000000
00000000
00001000
00000000
00000000
00010000
00000000
00000000
00000010
00000000
00000000
01000000
M000000M
00000000
,
00000000
00001000
01000000
01000000
00001000
00100000
00000100
00010000
,
00000010
00000000
00000000
00100000
00000000
00000000
00000100
00000000
00000000
00010000
00000000
00000000
00100000
00000000
00000000
01000000
00000000
00000000
00000100
00000000
00000000
00010000
00000000
M000000M
,
00000000
00000010
00000100
00000010
00100000
00001000
01000000
00001000
,
00100000
00000000
00000000
00000100
00000000
00000000
00000010
00000000
00000000
00010000
00000000
00000000
00100000
00000000
00000000
00000100
00000000
00000000
00001000
00000000
00000000
01000000
00000000
M000000M
,
00000000
00100000
01000000
00001000
00010000
00000010
00000100
00100000
,
00000100
00000000
00000000
00010000
00000000
00000000
01000000
00000000
00000000
00001000
00000000
00000000
00100000
00000000
00000000
00000100
00000000
00000000
00000010
00000000
00000000
00010000
00000000
M000000M
,
00000000
00000100
00000100
00001000
00100000
00001000
01000000
01000000
,
00010000
00000000
00000000
00100000
00000000
00000000
00000100
00000000
00000000
00000010
00000000
00000000
00100000
00000000
00000000
00000100
00000000
00000000
01000000
00000000
00000000
00001000
00000000
M000000M
,
00000000
00001000
00100000
00000000
01000000
00001000
00000100
00000000
,
00000010
00000000
00000000
00010000
00000000
00000000
00000100
00000000
00000000
00000000
00000000
00000000
00000010
00000000
00000000
01000000
00000000
00000000
00010000
00000000
00000000
00100000
00000000
M000000M
,
00000000
00001000
00000100
00000000
00000010
00000010
00000010
00000000
,
00100000
00000000
00000000
01000000
00000000
00000000
00000100
00000000
00000000
00000000
00000000
00000000
00010000
00000000
00000000
00000100
00000000
00000000
00000010
00000000
00000000
01000000
00000000
M000000M
,
00000000
00010000
00100000
00000000
00001000
00010000
00100000
00000000
,
00001000
00000000
00000000
00000100
00000000
00000000
00100000
00000000
00000000
00000000
00000000
00000000
01000000
00000000
00000000
01000000
00000000
00000000
00010000
00000000
00000000
00100000
00000000
M000000M
,
00000000
00000010
00000010
00000000
01000000
00010000
00100000
00000000
,
00001000
00000000
00000000
00100000
00000000
00000000
00000100
00000000
00000000
00100000
00000000
00000000
00001000
00000000
00000000
01000000
00000000
00000000
00000010
00000000
00000000
00100000
00000000
00000000
00000100
00000000
00000000
00010000
00000000
00000000
00000100
00000000
00000000
01000000
00000000
00000000
00000010
00000000
00000000
00100000
00000000
00000000
00000010
00000000
00000000
00010000
M000000M
00000000
,
00000000
01000000
01000000
00000100
00001000
00100000
00010000
00100000
,
01000000
00000000
00000000
00000100
00000000
00000000
00010000
00000000
00000000
01000000
00000000
00000000
00000010
00000000
00000000
00100000
00000000
00000000
00001000
00000000
00000000
00010000
00000000
M000000M
,
00000000
00000010
00000010
00010000
00000100
00000100
00000100
01000000
,
00010000
00000000
00000000
00000000
00000000
00000000
00000000
00000000
00000000
00000000
00000000
00000000
01000000
00000000
00000000
00000000
00000000
00000000
00010000
00000000
00000000
00100000
00000000
M000000M
,
00000000
01000000
01000000
00000100
00001000
00010000
00001000
00000010
,
00100000
00000000
00000000
00000100
00000000
00000000
00010000
00000000
00000000
01000000
00000000
00000000
00000100
00000000
00000000
00000010
00000000
00000000
00100000
00000000
00000000
01000000
00000000
M000000M
,
00000000
00001000
00100000
00000100
00001000
00000010
00100000
01000000
,
00001000
00000000
00000000
00000000
00000000
00000000
00001000
00000000
00000000
00000000
00000000
00000000
00001000
00000000
00000000
00000100
00000000
00000000
00100000
00000000
00000000
00000100
00000000
M000000M
,
00000000
00010000
01000000
00001000
00010000
00000010
00010000
00000100
,
00100000
00000000
00000000
00001000
00000000
00000000
01000000
00000000
00000000
00000100
00000000
00000000
00010000
00000000
00000000
00000100
00000000
00000000
00001000
00000000
00000000
00000010
00000000
M000000M
,
00000000
00010000
01000000
00001000
00100000
00100000
01000000
01000000
,
00000100
00000000
00000000
00000000
00000000
00000000
00000000
00000000
00000000
00000000
00000000
00000000
00001000
00000000
00000000
00000000
00000000
00000000
00000100
00000000
00000000
00000100
00000000
M000000M
,
00000000
00010000
01000000
00001000
00010000
00100000
00000100
00001000
,
01000000
01000000
00010000
00100000
00000100
00010000
00000100
00000010
,
00010000
00000000
00010000
00000000
00010000
00100000
01000000
00010000
,
00000100
00100000
00001000
00010000
00000100
01000000
00000010
00100000
00001000
00010000
00000100
01000000
00000100
00100000
00000010
00010000
,
00000100
00000000
00000000
00000000
;
